Классический форум-трекер
canvas not supported
Нас вместе: 4 088 182

Уход за младенцем с первых дней


Страницы:   Пред.  1, 2 
 
RSS
Начать новую тему   Ответить на тему    Торрент-трекер NNM-Club -> Видео -> Обучающее Видео для родителей
Автор Сообщение
taana ®
Предупреждений: 1
Предупреждений: 1 
Стаж: 11 лет 6 мес.
Сообщений: 31
Ratio: 1,564
Поблагодарили: 933
6.54%
Уход за младенцем с первых дней
Видеокурс для родителей

Содержание:
* уход за пуповиной
* уход за кожей младенца
* утрений туалет
* как помочь ребенку адаптироваться к режиму День-Ночь
* купание, подмывание
* учимся плавать в ванной
* как проводить закаливание ребенка
* прогулки с новорожденным
* как правильно пеленать новорожденного
* как делать подгузники
* как держать ребенка
* как и где лучше спать малышу
* грудное вскармливание
* трещины сосков

Продолжительность: 00:42:12
Качество видео: DVDRip

Видеокодек: DivX 5
Битрейт видео: ~934 Kbps
Размер кадра: 720х576,(5:4),23.976 fps
Аудиокодек: MP3
Битрейт аудио: ~192 Kbps,44.1 KHz,2 channels
Format : AVI
Format/Info : Audio Video Interleave
File size : 343 MiB
Duration : 42mn 12s
Overall bit rate : 1 136 Kbps

Video
ID : 0
Format : MPEG-4 Visual
Format settings, BVOP : Yes
Format settings, QPel : No
Format settings, GMC : No warppoints
Format settings, Matrix : Default (H.263)
Muxing mode : Packed bitstream
Codec ID : DX50
Codec ID/Hint : DivX 5
Duration : 42mn 12s
Bit rate : 934 Kbps
Width : 720 pixels
Height : 576 pixels
Display aspect ratio : 5:4
Frame rate : 23.976 fps
Standard : PAL
Color space : YUV
Chroma subsampling : 4:2:0
Bit depth : 8 bits
Scan type : Progressive
Bits/(Pixel*Frame) : 0.094
Stream size : 282 MiB (82%)
Writing library : DivX 5.1.1 (Maupiti) (UTC 2003-11-19)

Audio
ID : 1
Format : MPEG Audio
Format version : Version 1
Format profile : Layer 3
Codec ID : 55
Codec ID/Hint : MP3
Duration : 42mn 12s
Bit rate mode : Constant
Bit rate : 192 Kbps
Channel(s) : 2 channels
Sampling rate : 44.1 KHz
Video delay : 26ms
Stream size : 58.0 MiB (17%)
Alignment : Split accross interleaves
Interleave, duration : 42 ms (1.00 video frame)
Title : Audio Stream
Скриншоты:


См. также Подготовьтесь к родам
UxodZaMladencem[nnm-club.ru].torrent
 Торрент: Платиновая раздача  Зарегистрирован
 
Скачать


 Зарегистрирован:   11 Июн 2007 16:15:38
 Размер:   343 MB  (
 Рейтинг:   4,8 (Голосов: 68)
 Поблагодарили:   421
 Проверка:   Оформление проверено модератором 13 Июн 2007 09:46:23
Как cкачать  ·  Как раздать  ·  Правильно оформить  ·  Поднять ратио!  
djack_ved
Стаж: 11 лет 5 мес.
Сообщений: 181
Ratio: 2,993
Поблагодарили: 482
17.93%
ukraine.gif
КсенияТКД писал(а):
Ну, с мылом щас редко кто моется-ведь есть гели для душа:)


Какая гадость эта ваша заливная рыба... :показывает язык:
Главно чтобы здоровое тело было! Кто в городе живёт, тому конечно - с мылом. А кто на чистом воздухе - зачем? Вода смывает грязный пот, зато не убивает защиту тела, в отличии от мыла. :)
КсенияТКД
Гость
Ага, главное, чтоб чистая была эта вода:) тада канечн:) эт мы в Москве от экологии плохой загибаемся.) В метро проедешь в час пик и хочется отмытья до скрипа:)да и некоторых других регионах..-вот щас по телеку в новостях рассказали, какая вода в реке Амур..это ж ума сойти..:) А на даче - речка чистая, любо-дорого вечерком искупнуться:)да и с утреца..
djack_ved
Стаж: 11 лет 5 мес.
Сообщений: 181
Ratio: 2,993
Поблагодарили: 482
17.93%
ukraine.gif
КсенияТКД, товарищ по несчастью. :) Только не в Москве Я, а в Донецкой обл., что в принципе не лучше.
А дача - это хорошо! Но это лишь пока что в планах у меня. А лучше - в ЛЕС, или посёлок какой нибудь глухой, чтоб там детишков воспитать и в чистоте, в гормонии, и в счатье. :)

Ребёнка ждешь?
КсенияТКД
Гость
Ой, давно в нете не была:) пока еще не жду ребенков:) но планирую. а у тебя есть ребенки?:) на дачу мы с мужем планируем со временем перебраться жить, щас в Москве тенденция такая пошла-из города вон:) но там надо все отстраивать-обустраивать..долгое эт дело..
я тут картиночку нашла прикольную-как раз в тему http://img377.imageshack.us/my.php?image=i10yj8.jpg но эт шутка, так что без обид:)
tjuz
Гость
Мне понравилось видео. Тем более что через 3 месяца появится такой карапуз у меня. Особенно хорошо показано как пеленать!!! Спасибо за видео!
olgast
Гость
Много чего интересного есть, хотя есть вещи, с которыми лично я не согласна. Но посмотреть стоит
iTango
Стаж: 11 лет 6 мес.
Сообщений: 4
Ratio: 7,629
1.95%
australia.gif
приогромное - СПАСИБО!!! :)
Hax
Стаж: 9 лет 4 мес.
Сообщений: 162
Ratio: 92,681
100%
вот млин все чего-то обсуждают
подскажите плз а и хде качали-то :смех:
Argonchik
Сталкер
 
Стаж: 10 лет 10 мес.
Сообщений: 1514
Ratio: 22,274
Раздал: 20,38 TB
Поблагодарили: 11505
100%
Откуда: Москва
russia.gif
Сюда, пожалуйста, отправьте раздачу.
mr.mag
Стаж: 8 лет 10 мес.
Сообщений: 6
Ratio: 1,893
17.8%
Откуда: Bratsk
russia.gif
спс, как-раз дочь родилась...
Georg163
 
Стаж: 7 лет 7 мес.
Сообщений: 54
Ratio: 17,168
100%
russia.gif
Огромное спасибо !!!!!!!!!!!! 10+
Так мы вам благодарны!!
Всеволод Александрович
Стаж: 8 лет 10 мес.
Сообщений: 173
Ratio: 21,76
Раздал: 1,809 TB
Поблагодарили: 13727
100%
Откуда: Svetlogorsk
belarus.gif
Format : AVI
Format/Info : Audio Video Interleave
File size : 343 MiB
Duration : 42mn 12s
Overall bit rate : 1 136 Kbps

Video
ID : 0
Format : MPEG-4 Visual
Format settings, BVOP : Yes
Format settings, QPel : No
Format settings, GMC : No warppoints
Format settings, Matrix : Default (H.263)
Muxing mode : Packed bitstream
Codec ID : DX50
Codec ID/Hint : DivX 5
Duration : 42mn 12s
Bit rate : 934 Kbps
Width : 720 pixels
Height : 576 pixels
Display aspect ratio : 5:4
Frame rate : 23.976 fps
Standard : PAL
Color space : YUV
Chroma subsampling : 4:2:0
Bit depth : 8 bits
Scan type : Progressive
Bits/(Pixel*Frame) : 0.094
Stream size : 282 MiB (82%)
Writing library : DivX 5.1.1 (Maupiti) (UTC 2003-11-19)

Audio
ID : 1
Format : MPEG Audio
Format version : Version 1
Format profile : Layer 3
Codec ID : 55
Codec ID/Hint : MP3
Duration : 42mn 12s
Bit rate mode : Constant
Bit rate : 192 Kbps
Channel(s) : 2 channels
Sampling rate : 44.1 KHz
Video delay : 26ms
Stream size : 58.0 MiB (17%)
Alignment : Split accross interleaves
Interleave, duration : 42 ms (1.00 video frame)
Title : Audio Stream
Продолжительность: 00:42:12
Качество видео: DVDRip

Видеокодек: DivX 5
Битрейт видео: ~934 Kbps
Размер кадра: 720х576,(5:4),23.976 fps
Аудиокодек: MP3
Битрейт аудио: ~192 Kbps,44.1 KHz,2 channels
NiNa812
Стаж: 7 лет 4 мес.
Сообщений: 34
Ratio: 8,136
100%
russia.gif
Качаю, точнее пытаюсь... но никто не раздааааааееееет!!!! :огорчение: :незнает:
boroda-max
 
Стаж: 11 лет 4 мес.
Сообщений: 1612
Ratio: 51,778
Поблагодарили: 17911
100%
ussr.gif
NiNa812
я вижу обратное
Seeders: [ 40 (0 B/s) ]
Leechers: [ 0 (0 B/s) ]
никто не качает
Krukov_Aleksey
Стаж: 6 лет 5 мес.
Сообщений: 51
Ratio: 217,43
55.79%
Спс
Показать сообщения:   
Начать новую тему   Ответить на тему    Торрент-трекер NNM-Club -> Видео -> Обучающее Видео для родителей Часовой пояс: GMT + 3
Страницы:   Пред.  1, 2
Страница 2 из 2